设为首页收藏本站

雾中楼影视武侠怀旧论坛-中国最大的影视分享基地

 找回密码
 立即注册

QQ登录

只需一步,快速开始

查看: 689|回复: 5

[香港][2009][巾帼枭雄][全25集][邓萃雯/黎耀祥][高清翡翠台/国粤双语中字][720P/MKV/18.3G]

[复制链接]
  • TA的每日心情

    2020-9-17 06:55
  • 签到天数: 504 天

    [LV.9]以坛为家II

    发表于 2018-4-28 01:21:52 | 显示全部楼层 |阅读模式

    [香港][2009][巾帼枭雄][全25集][邓萃雯/黎耀祥][高清翡翠台/国粤双语中字][720P/MKV/18.3G]



    导演: 李添胜
    编剧: 张华标 / 陈静仪
    主演: 黎耀祥 / 邓萃雯 / 商天娥 / 吴卓羲 / 胡定欣 / 雪妮 / 岳华 / 谢雪心 / 惠英红 / 李成昌 / 许碧姬
    类型: 剧情
    制片国家/地区: 香港
    语言: 国语粤语
    首播: 2009-04-27(香港)
    集数: 25
    单集片长: 40分钟
    又名: Rosy Business / 妻妾成群 / 红粉商人
    IMDb链接: tt1503038


    巾帼枭雄的剧情简介 · · · · · ·


      清朝咸丰年间,康宝琦(邓萃雯 饰)是京城铁帽子王爷的厨娘,跟随王爷奔赴江浙。因为水灾,苏浙民不聊生,蒋家却开仓济世受到朝廷重赏,此次王爷一行就是为了以全米宴赏赐蒋家。而康宝琦则是为了一见旧情人蒋乔(岳华 饰),即是开仓济世的蒋家老爷。而此时的蒋乔已为人父,有人认出宝琦的秘密身份并向朝廷揭发,一段尘封的往事再次被打开,在王爷的帮助下,宝琦逃过此劫并嫁入蒋家做了四姨太。此举遭到了蒋家上下的反对,米行中更是暗流汹涌。岂料,蒋乔突然离世,临终前将米行和蒋家托付给宝琦。一面是丧夫之痛,一面是蒋家上下的虎视眈眈,宝琦再次被推到风口浪尖。她能否将蒋家几十年的基业发展下去?

    购买主题 已有 3 人购买  本主题需向作者支付 100 雾币 才能浏览
    回复

    使用道具 举报

  • TA的每日心情

    2020-9-17 06:55
  • 签到天数: 504 天

    [LV.9]以坛为家II

     楼主| 发表于 2018-4-28 01:31:03 | 显示全部楼层
    General
    Complete name                    : H:\巾帼枭雄I.E01.HDTV.720P.X264.国粤双语-CMCT.mkv
    Format                           : Matroska
    File size                        : 750 MiB
    Duration                         : 43mn 48s
    Overall bit rate                 : 2 395 Kbps
    Encoded date                     : UTC 2010-12-03 14:46:56
    Writing application              : mkvmerge v2.1.0 ('Another Place To Fall') built on Aug 19 2007 13:40:07
    Writing library                  : libebml v0.7.7 + libmatroska v0.8.1
    Video
    ID                               : 1
    Format                           : AVC
    Format/Info                      : Advanced Video Codec
    Format profile                   : High@L3.1
    Format settings, CABAC           : Yes
    Format settings, ReFrames        : 4 frames
    Codec ID                         : V_MPEG4/ISO/AVC
    Duration                         : 43mn 48s
    Bit rate                         : 2 007 Kbps
    Width                            : 1 280 pixels
    Height                           : 720 pixels
    Display aspect ratio             : 16:9
    Frame rate                       : 25.000 fps
    Color space                      : YUV
    Chroma subsampling               : 4:2:0
    Bit depth                        : 8 bits
    Scan type                        : Progressive
    Bits/(Pixel*Frame)               : 0.087
    Stream size                      : 615 MiB (82%)
    Writing library                  : x264 core 98 r1649 c54c47d
    Language                         : English
    Audio #1
    ID                               : 2
    Format                           : AC-3
    Format/Info                      : Audio Coding 3
    Mode extension                   : CM (complete main)
    Codec ID                         : A_AC3
    Duration                         : 43mn 48s
    Bit rate mode                    : Constant
    Bit rate                         : 192 Kbps
    Channel(s)                       : 2 channels
    Channel positions                : Front: L R
    Sampling rate                    : 48.0 KHz
    Bit depth                        : 16 bits
    Compression mode                 : Lossy
    Stream size                      : 60.2 MiB (8%)
    Title                            : 国语
    Language                         : Chinese
    Audio #2
    ID                               : 3
    Format                           : AC-3
    Format/Info                      : Audio Coding 3
    Mode extension                   : CM (complete main)
    Codec ID                         : A_AC3
    Duration                         : 43mn 48s
    Bit rate mode                    : Constant
    Bit rate                         : 192 Kbps
    Channel(s)                       : 2 channels
    Channel positions                : Front: L R
    Sampling rate                    : 48.0 KHz
    Bit depth                        : 16 bits
    Compression mode                 : Lossy
    Stream size                      : 60.2 MiB (8%)
    Title                            : 粤语
    Language                         : Chinese
    Text
    ID                               : 4
    Format                           : UTF-8
    Codec ID                         : S_TEXT/UTF8
    Codec ID/Info                    : UTF-8 Plain Text
    回复 支持 反对

    使用道具 举报

  • TA的每日心情
    开心
    2021-1-6 00:22
  • 签到天数: 627 天

    [LV.9]以坛为家II

    发表于 2018-11-10 07:20:51 | 显示全部楼层
    thanks for sharing
    回复 支持 反对

    使用道具 举报

  • TA的每日心情
    奋斗
    4 小时前
  • 签到天数: 680 天

    [LV.9]以坛为家II

    发表于 2020-12-1 18:29:48 | 显示全部楼层
    很喜欢这部剧,主角很聪明
    回复 支持 反对

    使用道具 举报

    您需要登录后才可以回帖 登录 | 立即注册

    本版积分规则

    手机版|小黑屋|雾中楼影视武侠怀旧论坛    

    GMT+8, 2021-1-19 22:40

    Powered by Discuz! X3.2

    © 2001-2013 Comsenz Inc.

    快速回复 返回顶部 返回列表