设为首页收藏本站

雾中楼影视武侠怀旧论坛-中国最大的影视分享基地

 找回密码
 立即注册

QQ登录

只需一步,快速开始

查看: 207|回复: 2

[1980][香港][万人斩.邵氏][陈观泰/谷峰][1080P-MKV-6.64G][国语中字]

[复制链接]
  • TA的每日心情

    昨天 06:13
  • 签到天数: 468 天

    [LV.9]以坛为家II

    发表于 2018-4-23 14:58:32 | 显示全部楼层 |阅读模式

    万人斩.jpg
    万人斩 (5).jpg
    万人斩 (4).jpg
    万人斩 (3).jpg
    万人斩 (2).jpg
    ◎译  名 万人斩
    ◎片  名 萬人斬
    ◎年  代 1980
    ◎国  家 香港
    ◎类  别 剧情/动作/武侠/古装
    ◎语  言 国语
    ◎上映日期 1980-03-28
    ◎IMDb评分  7.1/10 from 192 users
    ◎IMDb链接  http://www.imdb.com/title/tt0083313/
    ◎豆瓣评分 7.3/10 from 604 users
    ◎豆瓣链接 https://movie.douban.com/subject/2145869/
    ◎片  长 98 分钟
    ◎导  演 桂治洪 Chih-Hung Kuei
    ◎主  演 陈观泰 Kuan Tai Chen
          谷峰 Feng Ku
          白彪 (Jason Pai Piao)
          艾飞
          曹达华 Tat-wah Cho
          尤翠玲

    ◎简  介

      1981年由桂治洪执导《万人斩》,以人皆所欲、斩破贪念和舍身成仁为故事的题材,电影主要演员有陈观泰、谷峰、白彪和尤翠玲。《万人斩》电影的剧本改编自张彻在1969年的电影作品《铁手无情》。邵氏一代武打小生陈观泰在电影里有精彩的演绎,饰演总捕头冷天鹰。冷天鹰在缉捕匪徒时有精彩的战斗场面,且有激情的情感戏。曾获得最佳演员奖项的谷峰,所饰演的是一位奸角,与正派有激烈的战斗。
      曾与陈观泰在《成记茶楼》合作的导演桂治洪,一直擅长于拍摄罪行、恐怖和喜剧等电影题材。《万人斩》是桂治洪唯一古装武侠作品,格局精奇,拍出肃杀和深沉的气氛。

    Complete name : killer.constable.1980.1080p.bluray.x264-ghouls.mkv
    Format : Matroska
    Format version : Version 4 / Version 2
    File size : 6.56 GiB
    Duration : 1 h 36 min
    Overall bit rate : 9 763 kb/s
    Encoded date : UTC 2017-03-31 22:24:13
    Writing application : mkvmerge v10.0.0 (\'To Drown In You\') 64bit
    Writing library : libebml v1.3.4 + libmatroska v1.4.5

    Video
    ID : 2
    Format : AVC
    Format/Info : Advanced Video Codec
    Format profile :
    High@L4.1
    Format settings, CABAC : Yes
    Format settings, ReFrames : 5 frames
    Codec ID : V_MPEG4/ISO/AVC
    Duration : 1 h 36 min
    Bit rate : 9 120 kb/s
    Width : 1 920 pixels
    Height : 816 pixels
    Display aspect ratio : 2.35:1
    Frame rate mode : Constant
    Frame rate : 23.976 (24000/1001) FPS
    Color space : YUV
    Chroma subsampling : 4:2:0
    Bit depth : 8 bits
    Scan type : Progressive
    Bits/(Pixel*Frame) : 0.243
    Stream size : 6.00 GiB (91%)
    Writing library : x264 core 148 r2744 b97ae06
    Encoding settings : cabac=1 / ref=5 / deblock=1:-3:-3 / analyse=0x3:0x133 / me=umh / subme=8 / psy=1 / psy_rd=1.00:0.00 / mixed_ref=1 / me_range=16 / chroma_me=1 / trellis=1 / 8x8dct=1 / cqm=0 / deadzone=21,11 / fast_pskip=0 / chroma_qp_offset=-2 / threads=6 / lookahead_threads=1 / sliced_threads=0 / nr=0 / decimate=1 / interlaced=0 / bluray_compat=0 / constrained_intra=0 / bframes=3 / b_pyramid=2 / b_adapt=1 / b_bias=0 / direct=3 / weightb=1 / open_gop=0 / weightp=2 / keyint=240 / keyint_min=23 / scenecut=40 / intra_refresh=0 / rc_lookahead=50 / rc=2pass / mbtree=1 / bitrate=9120 / ratetol=1.0 / qcomp=0.60 / qpmin=0 / qpmax=69 / qpstep=4 / cplxblur=20.0 / qblur=0.5 / vbv_maxrate=62500 / vbv_bufsize=78125 / nal_hrd=none / filler=0 / ip_ratio=1.40 / aq=1:1.00
    Default : Yes
    Forced : No


    Audio
    ID : 3
    Format : AC-3
    Format/Info : Audio Coding 3
    Mode extension : CM (complete main)
    Format settings, Endianness : Big
    Codec ID : A_AC3
    Duration : 1 h 36 min
    Bit rate mode : Constant
    Bit rate : 640 kb/s
    Channel(s) : 2 channels
    Channel positions : Front: L R
    Sampling rate : 48.0 kHz
    Frame rate : 31.250 FPS (1536 spf)
    Compression mode : Lossy
    Stream size : 440 MiB (7%)
    Language : Chinese
    Default : Yes

    Forced : No

    Text
    ID : 1
    Format : UTF-8
    Codec ID : S_TEXT/UTF8
    Codec ID/Info : UTF-8 Plain Text
    Language : English
    Default : Yes
    Forced : No


    Menu
    00:00:00.000 : en:00:00:00.000
    00:09:26.566 : en:00:09:26.566
    00:21:20.279 : en:00:21:20.279
    00:34:37.075 : en:00:34:37.075
    00:47:23.841 : en:00:47:23.841
    01:00:29.626 : en:01:00:29.626
    01:11:29.285 : en:01:11:29.285
    01:26:42.697 : en:01:26:42.697

    购买主题 已有 1 人购买  本主题需向作者支付 100 雾币 才能浏览
    回复

    使用道具 举报

  • TA的每日心情
    慵懒
    昨天 08:20
  • 签到天数: 255 天

    [LV.8]以坛为家I

    发表于 2020-7-16 08:40:59 | 显示全部楼层
    但愿还能下载
    回复 支持 反对

    使用道具 举报

  • TA的每日心情
    开心
    2 小时前
  • 签到天数: 557 天

    [LV.9]以坛为家II

    发表于 2020-7-16 13:55:05 | 显示全部楼层
    谢谢楼主分享资源
    回复 支持 反对

    使用道具 举报

    您需要登录后才可以回帖 登录 | 立即注册

    本版积分规则

    手机版|小黑屋|雾中楼影视武侠怀旧论坛    

    GMT+8, 2020-8-6 03:33

    Powered by Discuz! X3.2

    © 2001-2013 Comsenz Inc.

    快速回复 返回顶部 返回列表