设为首页收藏本站

雾中楼影视武侠怀旧论坛-中国最大的影视分享基地

 找回密码
 立即注册

QQ登录

只需一步,快速开始

查看: 5432|回复: 25

[台湾1994]《倚天屠龙记》马景涛 叶童64集国语字幕[16DVD9/ISO/121G]115礼包认证]

[复制链接]
  • TA的每日心情
    开心
    2016-8-24 04:42
  • 签到天数: 711 天

    [LV.9]以坛为家II

    发表于 2014-5-4 09:58:03 | 显示全部楼层 |阅读模式


    【中 文 名 称】倚天屠龙记

    【英 文 名 称】Heaven Sword And Dragon Sabre

    【音 轨】国语DD2.0/192Kbps

    【字 幕】繁体中文字幕(不可隐藏)

    【容 量】1-4集 7.69G

    【年 代】1994

    【片 长】3小时14分37秒

    【格 式】4:3(全屏幕)

    【制 式】NTSC

    【类 型】古装、武侠

    【导 演】赖水清

    【主 要 演 员】马景涛、叶童、周海媚、孙兴、萧大陆、潘仪君、杨宝玮、陈孝萱、常枫、张冰玉、江明、顾宝明、张振寰、李立群

    【集 数】共64集

    【版 本】台视文化

    【碟 片 数】共16 D9

    【剧 情】
        元末顺帝年间,政治腐败,反元义师此起彼落,以驱鞑子为名,追求个人权势,就在武林纷乱之际,江南发生多宗凶桉,死者都是各派着名人物,百姓惶惶不可终日。
        武当掌门人张三丰命爱徒张翠山,殷梨亭一查究竟,乃发现凶桉与邪教有关。原来真凶谢逊原是昔日明教四大护法之一,因师父成崑逼其妻姦淫不成,杀其妻后销声匿迹,谢为逼师父现身,不惜冒师父之名滥杀无辜,谢逊得高人指点,除非拥有屠龙刀,才能报此仇,寻找此刀成为谢最大的目标,而当时各门派掌门人,亦寻找此刀,一场腥风血雨亦因之而起了。
    峨嵋教门掌门人灭绝,到处找寻屠龙刀下落之际,闻讯昔日祖师拥有的倚天剑,落入蒙古汝阳王手中,于是事在必得,想同时拥有倚天剑和屠龙刀以称霸武林。
        张翠山在寻探江南凶桉之际,和魔教教主之女殷素素相恋结合,隐居在荒岛,并产下一子张无忌;此番因赴张三丰百岁大寿之际重现江湖,引起轩然大波。翠山为素素当年年少无知误伤无辜之过自杀身亡,素素难抑悲愤相继殉情。
    无忌孑然一身,由三丰抚养成 人,并因因缘际会和蒙古公主赵敏相识,并先后与武林侠女殷离、周芷若都有一段恋情,而这几位侠女都为张无忌神魂颠倒不能自己!后来无忌无意间当上明教教主,并化解了各大门派间的恩怨后,终于了悟人世间的烦脑皆是为〝情〞所困而致!无忌决定退出江湖,带着相爱相知的赵敏远离尘嚣,过着平澹隐居的山野生活。

    General
    Complete name                  : K:\VIDEO_TS\VTS_01_1.VOB
    Format                         : MPEG-PS
    File size                      : 1 024 MiB
    Duration                       : 24s 958ms
    Overall bit rate mode          : Variable
    Overall bit rate               : 344 Mbps

    Video
    ID                             : 224 (0xE0)
    Format                         : MPEG Video
    Format version                 : Version 2
    Format profile                 : Main@Main
    Format settings, BVOP          : No
    Format settings, Matrix        : Custom
    Format settings, GOP           : M=3, N=15
    Duration                       : 24s 958ms
    Bit rate mode                  : Variable
    Bit rate                       : 337 Mbps
    Maximum bit rate               : 8 260 Kbps
    Width                          : 720 pixels
    Height                         : 480 pixels
    Display aspect ratio           : 4:3
    Frame rate                     : 29.970 fps
    Standard                       : NTSC
    Color space                    : YUV
    Chroma subsampling             : 4:2:0
    Bit depth                      : 8 bits
    Scan type                      : Interlaced
    Scan order                     : Top Field First
    Compression mode               : Lossy
    Bits/(Pixel*Frame)             : 32.542
    Time code of first frame       : 00:01:00;02
    Time code source               : Group of pictures header
    Stream size                    : 1 003 MiB (98%)

    Audio
    ID                             : 189 (0xBD)-128 (0x80)
    Format                         : AC-3
    Format/Info                    : Audio Coding 3
    Mode extension                 : CM (complete main)
    Format settings, Endianness    : Big
    Muxing mode                    : DVD-Video
    Duration                       : 24s 832ms
    Bit rate mode                  : Constant
    Bit rate                       : 192 Kbps
    Channel(s)                     : 2 channels
    Channel positions              : Front: L R
    Sampling rate                  : 48.0 KHz
    Bit depth                      : 16 bits
    Compression mode               : Lossy
    Stream size                    : 582 KiB (0%)

    Menu



    下载地址:
    购买主题 已有 11 人购买  本主题需向作者支付 500 雾币 才能浏览
    回复

    使用道具 举报

  • TA的每日心情
    开心
    2016-12-30 21:56
  • 签到天数: 745 天

    [LV.9]以坛为家II

    发表于 2014-5-4 10:46:18 | 显示全部楼层
    这真是双语版?
    回复 支持 反对

    使用道具 举报

  • TA的每日心情
    开心
    2016-12-30 21:56
  • 签到天数: 745 天

    [LV.9]以坛为家II

    发表于 2014-5-4 10:48:27 | 显示全部楼层
    希望可以介绍全面些!
    回复 支持 反对

    使用道具 举报

  • TA的每日心情
    开心
    11 小时前
  • 签到天数: 1515 天

    [LV.Master]伴坛终老

    发表于 2014-5-4 11:46:37 | 显示全部楼层
    标题与内容不符,而且内容都隐藏了,购买才能看到
    回复 支持 反对

    使用道具 举报

  • TA的每日心情
    开心
    2016-4-21 21:01
  • 签到天数: 382 天

    [LV.9]以坛为家II

    发表于 2014-5-4 12:10:08 | 显示全部楼层
    画质真好,感谢分享
    回复 支持 反对

    使用道具 举报

  • TA的每日心情

    2017-2-2 11:11
  • 签到天数: 144 天

    [LV.7]常住居民III

    发表于 2014-5-4 14:18:54 | 显示全部楼层
    veree 发表于 2014-5-4 10:45
    这剧16D9的真是双语版?
    这剧双语的应该没发行过DVD更没有16D9的说法吧

    其实都是画面和很多MKV没有区别  就是文件大一些  
    回复 支持 反对

    使用道具 举报

  • TA的每日心情
    奋斗
    2019-9-14 20:43
  • 签到天数: 843 天

    [LV.10]以坛为家III

    发表于 2014-5-4 15:13:30 | 显示全部楼层
    这版是最经典的版本,影响相当深远,是收藏的首选。
    回复 支持 反对

    使用道具 举报

  • TA的每日心情
    开心
    2016-12-30 21:56
  • 签到天数: 745 天

    [LV.9]以坛为家II

    发表于 2014-5-4 16:20:00 | 显示全部楼层
    本帖最后由 软件百宝袋! 于 2014-5-10 12:03 编辑

    已买!值得收藏!
    回复 支持 反对

    使用道具 举报

  • TA的每日心情
    开心
    2015-8-26 20:18
  • 签到天数: 739 天

    [LV.9]以坛为家II

    发表于 2014-5-4 20:29:09 | 显示全部楼层
    回复 支持 反对

    使用道具 举报

  • TA的每日心情
    开心
    2016-9-13 15:38
  • 签到天数: 462 天

    [LV.9]以坛为家II

    发表于 2014-5-5 09:44:20 | 显示全部楼层
    好看,好看,一直很喜欢
    回复 支持 反对

    使用道具 举报

    您需要登录后才可以回帖 登录 | 立即注册

    本版积分规则

    手机版|小黑屋|雾中楼影视武侠怀旧论坛    

    GMT+8, 2019-12-8 21:05

    Powered by Discuz! X3.2

    © 2001-2013 Comsenz Inc.

    快速回复 返回顶部 返回列表